加入收藏 | 设为首页 | 会员中心 | 我要投稿 | RSS
欢迎到大鱼网下载各类学习资源、 最新电影http://www.dayula.net
您当前的位置:首页 > 电影 > 动作

《街头之王2:摩托之城》[P2P][DVDRip]

   
       收藏本资源
本资源最后更新时间:
2012-01-21 11:26:42
如不能正常下载,请查看下载帮助。
 

下面是用户共享的资源列表,请点击下载的链接进行下载,如不能正常下载,请查看下载帮助
分享到: 更多
[街头之王2:摩托之城].Street.Kings.2.Motor.City.2011.DVDRiP.AC3.XViD-LKRG.avi 982.8 MB
[街头之王2:摩托之城].Street.Kings.2.Motor.City.2011.DVDRiP.XViD-SAM.avi 695.7 MB
[街头之王2:摩托之城].Street.Kings.2.Motor.City.2011.DVDRip.XviD-ViP3R.avi 700.0 MB

资源介绍

简介: 
IPB Image

【影片原名】Street Kings: Motor City
【中文译名】街头之王2:摩托之城
【出品公司】Silver Nitrate
【出品年代】2011 年
【上映日期】2011年4月19日 美国
【影片级别】USA:R (certificate #46534)
【IMDB链接】http://www.imdb.com/title/tt1707687/
【IMDB评分】(awaiting 5 votes)
【国  家】美国
【类  别】动作/犯罪/剧情
【导  演】Chris Fisher
【主  演】Ray Liotta … Marty Kingston
Linda Boston … Captain Walker
Ele Bardha … Sgt. Tomic
Ron Causey … Prisoner
Kevin Chapman … Det.Rogan
John P. Chittick … Undercover Officer
【文件格式】XviD + AC3
【文件大小】970M
【视频尺寸】680 x 384
【影片长度】未知
【对白语言】英语
【字幕语言】搜索字幕
【内容简介】
Ray Liotta (Goodfellas) delivers an intense, electrifying performance in this explosive follow-up to the gritty urban crime thriller Street Kings. Liotta plays Detroit detective Marty Kingston, the leader of an undercover narcotics team, whose members are being systematically murdered one by one. To solve the brutal killings, Kingston joins forces with a cocky, young homicide detective. But neither of them is prepared for the shocking corruption their investigation will uncover
代码Format;AVI
File Size:1.1gb
Video
ID : 0
Format : MPEG-4 Visual
Format profile : Advanced Simple@L5
Format settings, BVOP : Yes
Format settings, QPel : No
Format settings, GMC : No warppoints
Format settings, Matrix : Custom
Codec ID : XVID
Codec ID/Hint : XviD
Duration : 1h 25mn
Bit rate : 1 141 Kbps
Width : 680 pixels
Height : 384 pixels
Display aspect ratio : 16:9
Frame rate : 23.976 fps
Color space : YUV
Chroma subsampling : 4:2:0
Bit depth : 8 bits
Scan type : Progressive
Bits/(Pixel*Frame) : 0.182
Stream size : 702 MiB (71%)
Writing library : XviD 1.2.1 (UTC 2008-12-04)
Audio
ID : 1
Format : AC-3
Format/Info : Audio Coding 3
Mode extension : CM (complete main)
Codec ID : 2000
Duration : 1h 25mn
Bit rate mode : Constant
Bit rate : 448 Kbps
Channel(s) : 6 channels
Channel positions : Front: L C R, Side: L R, LFE
Sampling rate : 48.0 KHz
Bit depth : 16 bits
Stream size : 275 MiB (28%)
Alignment : Aligned on interleaves
Interleave, duration : 42 ms (1.00 video frame)
Interleave, preload duration : 512 ms
上一篇: 《机械师》[P2P][BDRip] 下一篇: 《怒虎狂龙》CHD联盟[720P]

 

来顶一下
返回首页
返回首页
快速站内搜索
全面站内搜索

栏目更新
栏目热门
发表评论 共有条评论
用户名: 密码:
验证码: 匿名发表
无觅相关文章插件,快速提升流量